Central Intelligence 2016 uTorrent torrent

Health

Central Intelligence 2016 uTorrent torrent

Central Intelligence 2016

Av check
Central Intelligence 2016

Central Intelligence 2016

video

ID: 1

Format: AVC

Format / Info: Advanced Video Codec

Format profile:

formatting settings, CABAC: Yes

formatting settings, reframes: 4 frames

Codec ID: avc1

Codec ID / Info: Advanced Video Coding

Duration: 1 hour 51mn

bit rate: 4500 Kbps

Width: 1920 pixels

Height: 796 pixels

screen aspect ratio :: 1

frame rate mode: Constant

Frame rate: (23976/1000) fps

Color Space: YUV

Chroma subsampling: 4: 2: 0

Bit Depth: 8 bits

scan type: Progressive

Bits / (Pixel * Frame):

Stream size: MiB (95%)

Title:

Writing library: x264 core 148 r2597M e86f3a1

encoding settings: CABAC = 1 / ref = 4 / unlock = 1: 0: 0 / analyze = 0x3: 0x113 / me = UMH / subme = 8 / psy = 1 / psy_rd = / mixed_ref = 1 / me_range = 16 / chroma_me = 1 / trellis = 1 / 8x8dct = 1 / CQM = 0 / deadzone = 21.11 / fast_pskip = 1 / chroma_qp_offset = -2 / thread = 40 / lookahead_threads = 6 / sliced_threads = 0 / No = 0 / destroy = 1 / interlaced = 0 / bluray_compat = 0 / constrained_intra = 0 / bframes = 3 / b_pyramid = 2 / b_adapt = 2 / b_bias = 0 / direct = 3 / weightb = 1 / open_gop = 0 / weightp = 2 / keyint = 250 / keyint_min = 23 / scenecut = 40 / intra_refresh = 0 / rc_lookahead = 50 / rc = abr / mbtree = 1 / bit rate = 4500 / ratetol = / = qcomp / qpmin = 0 / qpmax = 69 / qpstep = 4 / ip_ratio = / water = 1

audio

ID: 2

Format: AAC

Format / Info: Advanced Audio Codec

Format profile: LC

Codec ID: 40

Duration: 1 hour 51mn

Bit rate mode: Constant

bit rate: 224 Kbps

Channel (s): 2 channels

Channel positions: Front: LR

Sampling rate: KHz

Fps frame rate (1024 spf)

Compression mode: Lossy

Stream size: 179 MiB (5%)

Title:

English

Default: Yes

Alternative group: 1